usbfoot

» » Natalie Cole - Ask A Woman Who Knows (3 Track Album Sampler)

Natalie Cole - Ask A Woman Who Knows (3 Track Album Sampler) download flac

music album
Natalie Cole - Ask A Woman Who Knows (3 Track Album Sampler) download flac

Performer: Natalie Cole
Title: Ask A Woman Who Knows (3 Track Album Sampler)
Released: 2002
Style: Contemporary Jazz, Easy Listening
Category: Jazz
Size FLAC: 1287 mb
Size MP3: 1516 mb
Size WMA: 1212 mb
Other formats: AHX DTS MPC DMF XM ASF VOC


Ask a Woman who Knows is the new chapter to this thrilling songbook. It also certifies Miss Cole’s full-circle move into jazz music: it is her first under the strictly jazz catalogued Verve Records and has copped several jazz nominations at the 2003 Grammy Awards. The arrangers did a terrific job at weaving Miss Cole's soaring vocal with the strings and percussion. Still, Ask a Woman who Knows is an elegant outing worth adding to one's Must Listen To list. Reply Notify me Helpful.

Natalie Cole is a fascinating vocalist who represents more than 30 years of worldwide critical acclaim, tremendous commercial success, the continuation of a family legacy, and consummate artistry. Her new dreams, ideas, and efforts unfold on Ask a Woman Who Knows, her debut for the Verve recording label and first recording in three years. Ms. Cole's musical choices include songs that depict the various aspects of love – its joy, its sorrow, its loneliness, and its consolation

CD 16-bit 44,1 kHz. MP3 320 kbps. 01. I Haven't Got Anything Better to Do. 02. Tell Me All About It. 03. Ask a Woman Who Knows. 07. I Told You So. 08. Soon. 09. I'm Glad There Is You. Cole’s musical choices include songs that depict the various aspects of love - its joy, its sorrow, its loneliness, and its consolation

Here at you can free download lossless album Natalie Cole - Ask A Woman Who Knows (2002) flac Welcome! . AUDIO TITLE "Tell Me All About It" PERFORMER "Natalie Cole" INDEX 01 04:08:05 TRACK 03 AUDIO TITLE "Ask A Woman Who Knows" PERFORMER "Natalie Cole" INDEX 01 08:19:13 TRACK 04 AUDIO TITLE "Its Crazy" PERFORMER "Natalie Cole" INDEX 01 12:35:73 TRACK 05 AUDIO TITLE "Youre Mine You" PERFORMER "Natalie Cole" INDEX 01 14:47:19 TRACK 06.

Artist: Natalie Cole Title Of Album: Ask A Woman Who Knows SACD, Hybrid, Multichannel Year Of Release: 2002 Label (Catalog Verve Records 589 915-2 Country: USA Genre: Soul-Jazz, Smooth J. This CD reunites Cole with producer by Tommy LiPuma, who produced "Unforgettable" and was the hit maker behind George Benson and Diana Krall. This collection is a classic blend of jazz-inflected pop, with the best and the brightest in the business.

This CD reunites Cole with producer by Tommy LiPuma, who produced "Unforgettable" and was the hit maker behind George Benson and Diana Krall. This collection is a classic blend of jazz-inflected pop, with the best and the brightest in the business

Ask a Woman Who Knows is a 2002 jazz album by vocalist Natalie Cole, with guest Diana Krall, and receiving four Grammy Award nominations. Courtesy of the Clayton-Hamilton Orchestra, Cole projects her aura on to songs once recorded previously by great singers like Nina Simone, Sarah Vaughan, Ella Fitzgerald, Dinah Washington, Peggy Lee, Carmen McRae, Barbra Streisand, Diana Ross, Frank Sinatra, and Nat "King" Cole.

Natalie Cole - Ask a Woman Who Knows (2002) tter Than Anything (Featuring Diana Krall).

Tracklist

1 Tell Me All About It 4:11
2 Ask A Woman Who Knows 4:14
3 Calling You 5:00

Notes

Issued in a pvc sleeve with a inkjet picture insert.

Track duration is not present on release.

Related at Natalie Cole - Ask A Woman Who Knows (3 Track Album Sampler) FLAC albums

Natalie Cole - Ask A Woman Who Knows download flac

Natalie Cole - Ask A Woman Who Knows album download...

Released: 2002
Country: Russia
Style: Soul-Jazz, Smooth Jazz, Vocal, Contemporary Jazz, Ballad
Natalie Cole - I'm Ready download flac

Natalie Cole - I'm Ready album download...

Released: 1983
Style: Rhythm & Blues, Soul, Disco
Nat King Cole - Lush Life download flac

Nat King Cole - Lush Life album download...

Released: 2008
Style: Soul
Ronnie And Natalie / Stumpwater - 6 Times / Turn Me On Woman download flac

Ronnie And Natalie / Stumpwater - 6 Times / Turn Me On Woman album download...

Released: 1972
Country: Canada
Style: Glam, Hard Rock, Rock & Roll
Ray Liberto - Wicked, Wicked Woman / Calling Margie download flac

Ray Liberto - Wicked, Wicked Woman / Calling Margie album download...

Released: 1958
Country: US
Style: Rockabilly
Natalie Cole Duet With Freddie Jackson - I Do download flac

Natalie Cole Duet With Freddie Jackson - I Do album download...

Released: 1989
Country: US
Style: Ballad