usbfoot

» » Various - DIY: Teenage Kicks - UK Pop I (1976-79)

Various - DIY: Teenage Kicks - UK Pop I (1976-79) download flac

music album
Various - DIY: Teenage Kicks - UK Pop I (1976-79) download flac

Performer: Various
Title: DIY: Teenage Kicks - UK Pop I (1976-79)
Released: 1993
Country: US
Style: New Wave, Power Pop, Pub Rock, Punk
Category: Rock
Size FLAC: 1596 mb
Size MP3: 1538 mb
Size WMA: 1813 mb
Other formats: FLAC WMA WAV MPC DXD XM TTA


Tracks 1 ℗ 1976 Sony Music Entertainment, Inc. under license from Sony Music Special Products Track 2 ℗ 1977 Island Records Lt. licensed from island Records Tracks 3, 7 ℗ 1977 Sony Music Entertainment, Inc. under license from Sony Music Special Products Track 4 ℗ 1977 Stiff Records, licensed Allen Cowderoy Track 5 ℗ 1977 Virgin Records, licensed from Virgin Records . DIY: Teenage Kicks - UK Pop I (1976-79) ‎(Cass, Comp). Rhino Records (2). R4 71173.

The Undertones - Teenage Kicks (2:26) 17. Yachts - Look Back in Love (Not in Anger) (2:26) 18. The Pleasers - A Girl I Know (Precis of a Friend) (3:28) 19. Skids - Into the Valley (3:15) +-+-+. Download from free file storage.

Teenage Kicks: UK Pop I (1976–79). - Morceaux suivants. Teenage Kicks: UK Pop I (1976–79). Vous avez une anecdote, une vidéo/photo ou une simple question sur cet album ? Créer un post. Various Artists Various Artists.

DIY: Teenage Kicks - UK Pop I (1976-79). DR Peak RMS Duration Track -DR11 . 0 dB -1. 8 dB 2:32 ?-01 - So It Goes DR10 . 3 dB 4:06 ?-02 - Do Anything You Wanna Do DR11 -. 3 dB -1. 5 dB 2:47 ?-03 - Mary Provost DR10 . 7 dB 3:00 ?-04 - Whole Wide World. DR9 . 2 dB 3:17 ?-05 - Dancing The Night Away DR11 . 1 dB 3:19 ?-06 - 2-4-6-8 Motorway DR11 . 9 dB 2:40 ?-07 - Television Generation DR11 -. 7 dB -1. 5 dB 2:51 ?-08 - Take Me, I'm Yours DR12

Teenage Kicks - UK Pop, Vol. 1" REM GENRE "Rock" REM DATE 1976 FILE "01 - So It Goes. wav" WAVE TRACK 01 AUDIO TITLE "So It Goes" PERFORMER "Nick Lowe" INDEX 01 00:00:00 TRACK 02 AUDIO TITLE "Do Anything You Wanna Do" PERFORMER "Eddie & The Hot Rods" INDEX 00 02:29:12 FILE "02 - Do Anything You Wanna. PERFORMER "Kursaal Flyers" INDEX 00 03:17:65 FILE "07 - Television Generation. wav" WAVE INDEX 01 00:00:00 TRACK 08 AUDIO TITLE "Take Me I'm Yours" PERFORMER "Squeeze" INDEX 00 02:38:22 FILE "08 - Take Me I'm Yours. wav" WAVE INDEX 01 00:00:00 TRACK 09 AUDIO TITLE "Another Girl, Another Planet" PERFORMER "The Only Ones" INDEX 00.

All the great songs and lyrics from the ". Teenage Kicks: UK Pop (1976-79)" album ont he Web's largest and most authoritative lyrics resource. Style:MLA Chicago APA. ". Teenage Kicks: UK Pop (1976-79) Album.

Tracklist

Nick Lowe So It Goes 2:32
Eddie & The Hot Rods* Do Anything You Wanna Do 4:06
Nick Lowe Mary Provost 2:47
Wreckless Eric Whole Wide World 3:00
The Motors Dancing The Night Away 3:17
Tom Robinson Band 2-4-6-8 Motorway 3:19
Kursaal Flyers Television Generation 2:40
Squeeze Take Me, I'm Yours 2:51
The Only Ones Another Girl, Another Planet 3:03
XTC This Is Pop? 2:44
The Boys Brickfield Nights 3:14
The Motors Airport 4:14
Jilted John Jilted John 2:59
The Rezillos Top Of The Pops 2:58
Rich Kids Ghosts Of Princes In Towers 3:35
The Undertones Teenage Kicks 2:27
Yachts Look Back In Love (Not In Anger) 2:26
The Pleasers A Girl I Know (Precis Of A Friend) 3:29
Skids Into The Valley 3:16

Versions

Category Artist Title (Format) Label Category Country Year
R2 71173 Various DIY: Teenage Kicks - UK Pop I (1976-79) ‎(CD, Comp) Rhino Records R2 71173 US 1993
R4 71173 Various DIY: Teenage Kicks - UK Pop I (1976-79) ‎(Cass, Comp) Rhino Records R4 71173 US 1993

Related at Various - DIY: Teenage Kicks - UK Pop I (1976-79) FLAC albums

The Undertones - Teenage Kicks download flac

The Undertones - Teenage Kicks album download...

Released: 1978
Country: UK
Style: Power Pop, Punk
Various - The Best Punk Anthems ...Ever! download flac

Various - The Best Punk Anthems ...Ever! album download...

Released: 1998
Country: Europe
Style: New Wave, Punk
Teenage Kicks - Electric Girl download flac

Teenage Kicks - Electric Girl album download...

Released: 2008
Country: US
Style: Punk
Various - The No. 1 Punk Album download flac

Various - The No. 1 Punk Album album download...

Released: 1996
Style: New Wave, Punk
Various - That Summer! download flac

Various - That Summer! album download...

Released: 1979
Country: UK
Style: New Wave, Punk
Various - The Best Punk Album In The World ... Ever! 2 download flac

Various - The Best Punk Album In The World ... Ever! 2 album download...

Released: 1996
Country: UK
Style: New Wave, Pop Rock, Punk