usbfoot

» » Various - MTV Party To Go Volume 5

Various - MTV Party To Go Volume 5 download flac

music album
Various - MTV Party To Go Volume 5 download flac

Performer: Various
Title: MTV Party To Go Volume 5
Released: 1994
Country: US
Style: House, Pop Rap, Hip Hop
Category: Electronic / Hip hop
Size FLAC: 1124 mb
Size MP3: 1680 mb
Size WMA: 1658 mb
Other formats: AAC VQF ASF DXD AA ADX VOC


The fifth volume in MTV's ongoing dance/party series accents hip-hop, current dancehall and recent urban contemporary fare in its 12 selections, showing how deeply these sounds have penetrated into the mainstream and MTV's pop/rock rotations.

MTV Party To Go Volume 5 was the fifth album in the MTV Party To Go series. The album was certified Gold on September 20, 1994 by the RIAA. Slam" (Ultimix) – Onyx. Informer" (Ultimix) – Snow. I Get Around" (Remix) – 2Pac. Come Baby Come" (Ultimix) – K7. "Whoomp! (There It Is)" (WPGC Remix) – Tag Team.

On this page you can not listen to mp3 music free or download album or mp3 track to your PC, phone or tablet. All materials are provided for educational purposes. Released at: This album was released on the label Tommy Boy (catalog number TBC 1097). This album was released in 1994 year. US. Format of the release is.

MTV Party To Go Volume 5. Compilation album by Various artists. Sporadically, the screen would go black when an employee at MTV inserted a tape into a VCR, MTVs lower third graphics that appeared near the beginning and end of music videos would eventually use the recognizable Kabel typeface for about 25 years. 2. Dr. Dre – Andre Romelle Young, better known by his stage name Dr. Dre, is an American rapper, record producer, and entrepreneur.

All the great songs and lyrics from the "MTV Party to Go, Vol. 5" album ont he Web's largest and most authoritative lyrics resource.

TITLE "MTV Party To Go, Vol. 9" REM GENRE "General Dance" REM DATE "1996" REM DISCNUMBER 1 REM TOTALDISCS 1 REM DISCID AD0CA40C REM COMPILATION TRUE FILE "01 MTV Party To Go, Vol. lac" WAVE TRACK 01 AUDIO TITLE "1,2,3,4 (Sumpin' New) (Timber Extended Mix)" PERFORMER "Coolio" SONGWRITER "Various Artists" INDEX 01 00:00:00. 22 TRACK 05 AUDIO TITLE "Runaway (Club Attack Mix)" PERFORMER "Real McCoy" SONGWRITER "Various Artists" INDEX 01 17:58:02 TRACK 06 AUDIO TITLE "You Remind Me Of Something " PERFORMER "R. Kelly" SONGWRITER "Various Artists" INDEX 01 21:46:45 TRACK 07 AUDIO TITLE "Hey Lover " PERFORMER "LL Cool J" SONGWRITER "Various Artists" INDEX 01 26:12:65 TRACK.

Tracklist

Tony! Toni! Toné! Anniversary (Quiet Storm) 6:21
Dr. Dre Let Me Ride (Extra Clean Radio Edit) 3:55
DJ Jazzy Jeff & The Fresh Prince Boom! Shake The Room (Ultimix) 6:32
Onyx Slam (Ultimix) 5:28
Snow Informer (Ultmix) 4:59
2Pac I Get Around (Remix) 4:18
K7 Come Baby Come (Extended Version / Ultimix) 5:18
Tag Team Whoomp! (There It Is) (WPGC Remix) 4:56
Zhané Groove Thang (Maurice's Club Mix W/ Rap) 5:59
Haddaway What Is Love (12" Mix) 6:33
SWV Weak (Bam Jam Jeep Mix) 5:55
H-Town Knockin' Da Boots (LP Version) 4:54

Versions

Category Artist Title (Format) Label Category Country Year
TBCD 1097 Various MTV Party To Go Volume 5 ‎(CD, Comp, Mixed) Tommy Boy TBCD 1097 US 1994
TBCD 1097 Various MTV Party To Go Volume 5 ‎(CD, Comp, Club) Tommy Boy TBCD 1097 US 1994
TBC 1097 Various MTV Party To Go Volume 5 ‎(Cass, Comp) Tommy Boy TBC 1097 US 1994
PRO TBC 1097 Various MTV Party To Go Volume 5 ‎(Cass, Comp, Promo) Tommy Boy PRO TBC 1097 US 1994


Related at Various - MTV Party To Go Volume 5 FLAC albums

Various - Ultimix 119 download flac

Various - Ultimix 119 album download...

Released: 2005
Country: US
Style: RnB/Swing, House, Garage House, Breakbeat, Trance
Various - Ultimix 69 download flac

Various - Ultimix 69 album download...

Released: 1998
Country: US
Style: House, Synth-pop, Disco
Various - Ultimix 121 download flac

Various - Ultimix 121 album download...

Released: 2006
Country: US
Style: House, Breaks, Garage House, Trance, Progressive House, Downtempo
Various - MTV Party To Go Volume 2 download flac

Various - MTV Party To Go Volume 2 album download...

Released: 1992
Country: US
Style: New Age, Downtempo, Pop Rap, New Jack Swing, Hip-House, House
Various - Greatest Beats - Volume 3 download flac

Various - Greatest Beats - Volume 3 album download...

Released: 1998
Country: US
Style: Electro, Downtempo
Various - Club Mix '96 Volume 1 download flac

Various - Club Mix '96 Volume 1 album download...

Released: 1996
Country: US
Style: RnB/Swing, House, Euro House
Naughty By Nature - Craziest download flac

Naughty By Nature - Craziest album download...

Released: 1995
Style: Pop Rap