usbfoot

» » Arthur Doyle - Live In Japan Doing The Breakdown

Arthur Doyle - Live In Japan Doing The Breakdown download flac

music album
Arthur Doyle - Live In Japan Doing The Breakdown download flac

Performer: Arthur Doyle
Title: Live In Japan Doing The Breakdown
Released: 1998
Style: Free Jazz
Category: Jazz
Size FLAC: 1990 mb
Size MP3: 1778 mb
Size WMA: 1479 mb
Other formats: XM VQF MPC AC3 MOD AUD WAV


1. (00:11:22) Arthur Doyle - African Queen. 2. (00:07:41) Arthur Doyle - Ozy Lady Dozy Lady. 3. (00:11:29) Arthur Doyle - Noah Black Ark. 4. (00:08:17) Arthur Doyle - Goverey. 5. (00:09:29) Arthur Doyle - Doing The Breakdown.

1 African Queen 11:25 2 Ozy Lady Dozy Lady 7:44 3 Noah Black Ark 11:32 4 Goverey 8:20 5 Doing The Breakdown 9:32 6 Just Get The Funkspot 7:31. Tenor Saxophone, Piano, Vocals – Arthur Doyle. Yokoto Music Entertainment ‎– YME-1 (Japan). Tracks 1-3 recorded at Modern Art Museum, Sendai on Nov 5, 1997. Track 4 recorded at Barber Fuji, Tokyo on Nov 10, 1997. Tracks 5-6 recorded at Shuyûkan on Nov 8, 1997. Thanks to snobb for the addition. No release results found : showing artist results instead.

Breakdown6 - Arthur Doyle - Just Get The Funkspot. wav Pre-gap length 0:00:02. 63 Peak level 9. % Track quality 10. % Test CRC EBA239AA Copy CRC EBA239AA Track not present in AccurateRip database Copy OK None of the tracks are present in the AccurateRip database No errors occurred End of status report. FILE "04 - Arthur Doyle - Goverey. wav" WAVE INDEX 01 00:00:00 TRACK 05 AUDIO TITLE "Doing The Breakdown" PERFORMER "Arthur Doyle" INDEX 00 08:17:23 FILE "05 - Arthur Doyle - Doing The Breakdown. wav" WAVE INDEX 01 00:00:00 TRACK 06 AUDIO TITLE "Just Get The Funkspot" PERFORMER "Arthur Doyle" INDEX 00 09:29:17 FILE "06 - Arthur Doyle - Just Get. The Funkspot. wav" WAVE INDEX 01 00:00:00.

Design – Akiyama Shin Engineer – Hashimoto Yoei Photography By – Wakui Hiromi Producer, Liner Notes – Yokoto Shigeru Tenor Saxophone, Piano, Vocals, Written-By – Arthur Doyle.

Singer: Arthur Doyle Album's name: Live In Japan Doing The Breakdown Label: Yokoto Music Entertainment ‎– YME-1 Type: CD, Album Country: Japan Date of released: 1998 Category: Jazz Style: Free Jazz. Arthur Doyle - Live In Japan Doing The Breakdown MP3 version. 1601 downloads at 15 mb/s. Arthur Doyle - Live In Japan Doing The Breakdown FLAC version. 1915 downloads at 11 mb/s. Producer, Liner Notes – Yokoto Shigeru. Tenor Saxophone, Piano, Vocals, Written-By – Arthur Doyle.

Arthur Doyle - Live In Japan Doing The Breakdown 1998, FLAC (tracks+. Download via torrent Download via magnet. not logged in. Random Downloads. 1 2 3 4 5 6 7 8 9 10 11 12 13 14 15 16 17 18 19 20 21 22 23 24 25 26 27 28 29 30 31 32 33 34 35 36 37 38 39 40 41 42 43 44 45 46 47 48 49 50. Downloads.

If there is a thin line between being a visionary and merely being a lolling lush, Arthur Doyle's Do the Breakdown easily exists on both sides of the divide. Doyle is at his best when playing the saxophone.

5 Live In Japan Doing The Breakdown. 6 Your Spirit Is Calling. 7 The Basement Tapes. 8 Plays & Sings from the Songbook Vol. One. 9 Arthur Doyle. 10 i am a photographer. 12 Live @ the Cooler. 13 Conspiracy Nation. 14 Hott Mixx 4: Punk Jazz. 15 A Prayer For Peace. 18 Live At The Dorsch Gallery. 20 Live At Glenn Miller Café. 21 Plays the African Love Call.

Tracklist

1 African Queen 11:25
2 Ozy Lady Dozy Lady 7:44
3 Noah Black Ark 11:32
4 Goverey 8:20
5 Doing The Breakdown 9:32
6 Just Get The Funkspot 7:31

Companies, etc.

  • Recorded At – Barber Fuji
  • Recorded At – Shuyukan

Credits

  • Design [Designer] – Akiyama Shin*
  • Engineer [Mastering Engineer] – Hashimoto Yoei*
  • Photography By – Wakui Hiromi*
  • Producer, Liner Notes – Yokoto Shigeru*
  • Tenor Saxophone, Piano, Vocals, Written-By – Arthur Doyle

Notes

Tracks 1-3 recorded at Modern Art Museum, Sendai on Nov 5, 1997. Track 4 recorded at Barber Fuji, Tokyo on Nov 10, 1997. Tracks 5-6 recorded at Shuyûkan on Nov 8, 1997.
Includes a 10 page booklet with lyrics, essay and photographs.

Related at Arthur Doyle - Live In Japan Doing The Breakdown FLAC albums

Jerry Marchand - A Knight's Journey download flac

Jerry Marchand - A Knight's Journey album download...

Released: 1997
Style: Celtic, New Age
Gwar - Live From Mt. Fuji download flac

Gwar - Live From Mt. Fuji album download...

Released: 2005
Country: Europe
Style: Heavy Metal
Arthur H - Arthur H download flac

Arthur H - Arthur H album download...

Released: 1997
Country: France
Style: Chanson
Arthur Doyle Electro-Acoustic Ensemble - National Conspiracy download flac

Arthur Doyle Electro-Acoustic Ensemble - National Conspiracy album download...

Released: 2004
Style: Free Jazz, Free Improvisation, Abstract