usbfoot

» » Waldo De Los Rios - Mozart 13 / Allegro/Rondo / Obertura 492 / Broma Musical

Waldo De Los Rios - Mozart 13 / Allegro/Rondo / Obertura 492 / Broma Musical download flac

music album
Waldo De Los Rios - Mozart 13 / Allegro/Rondo / Obertura 492 / Broma Musical download flac

Performer: Waldo De Los Rios
Title: Mozart 13 / Allegro/Rondo / Obertura 492 / Broma Musical
Released: 1972
Style: Easy Listening, Romantic
Category: Pop / Classical
Size FLAC: 1167 mb
Size MP3: 1778 mb
Size WMA: 1748 mb
Other formats: MPC MP4 AU ASF MP1 APE AIFF


Mozart 13 (Serenata . 13 En Sol Mayor "Noches De Música"). B1. Obertura 492 (Las Bodas De Fígaro K 492). B2. Broma Musical (4º Tiempo "Presto"). Companies, etc. Manufactured By – Hispavox, . Printed By – Grafiberica - Jerez. Adapted By – W. De Los Rios. Written-By – W. A. Mozart. Discos sorpresa fundador 1972/73.

Waldo De Los Rios - Obertura 492 (Las Bodas De Fígaro K 492) mp3. Waldo De Los Rios - Broma Musical (4º Tiempo "Presto") mp3. mp3 Player. Music video: Watch now Waldo De Los Rios's video clip of album "Mozart 13, Allegro/Rondo, Obertura 492, Broma Musical". España En Tercera Dimensión. All materials are provided for educational purposes. Tracklist of Waldo De Los Rios on this page

Broma Musical (Mozart In The House - Version Single) (3:47) 06. Sinfonia 40 (En Sol Menor K550 - Sin 40 House Mix) (6:20) 0. TITLE "Mozart 13 (Menuetto Nigth Mix)" PERFORMER "Waldo De Los Rios" INDEX 00 04:41:15 FILE "04 - Mozart 13 (Menuetto Nigth Mix). wav" WAVE INDEX 01 00:00:00 TRACK 05 AUDIO TITLE "Broma Musical (Mozart In The House - Version Single)" PERFORMER "Waldo De Los Rios" INDEX 00 03:59:07 FILE "05 - Broma Musical (Mozart In The House - Version Single). Los Rios" INDEX 00 06:16:57 FILE "07 - Mozart Nova (Magic Flute Mix). wav" WAVE INDEX 01 00:00:00 TRACK 08 AUDIO TITLE "Obertura 492 (Figaro In The House)" PERFORMER "Waldo De Los Rios" INDEX 00 05:29:15 FILE "08 - Obertura 492 (Figaro In The House). wav" WAVE INDEX 01 00:00:00 TRACK 09 AUDIO TITLE "Mozart 13 (Rondo.

Obertura 492 (Figaro In The House) (4:36) 09. Mozart 13 (Rondo 13 Mix) (2:28) 10. Sinfonia 40 (En Sol Menor K550 - Sin 40 House Mix - Version Single) (3:54). wav" WAVE TRACK 01 AUDIO TITLE "Broma Musical" PERFORMER "Waldo De Los Rios" PREGAP 00:00:32 INDEX 01 00:00:00 TRACK 02 AUDIO TITLE "Mozart 21. (Do21 Mix)" PERFORMER "Waldo De Los Rios" INDEX 00 05:47:18 FILE "02 - Mozart 21 (Do21 Mix)

Album: Mozart in the House. Mozart in the House: Best 2 songs. Orquesta Manuel de Falla, Waldo De Los Rios, Вольфганг Амадей Моцарт - Mozart 13 04:43. Orquesta Manuel de Falla, Waldo De Los Rios, Вольфганг Амадей Моцарт - Mozart 21 05:20. Album: Mozart in the House. Orquesta Manuel de Falla, Waldo De Los Rios, Вольфганг Амадей Моцарт: best 2 tracks

Request an album send to friend. Waldo De Los Rios - Mozart In The House (1991). Waldo De Los Rios - Waldo De Los Rios - Mozart In The House. 03 - Mozart 13 (Allegro Hot Mix). 4. 04 - Mozart 13 (Menuetto Nigth Mix). 5. 05 - Broma Musical (Mozart In The House - Version Single).

Mozart 13 (Allegro Hot Mix). Mozart 13 (Menuetto Night Mix). Broma Musical (From Musikalischer Spass, K. 522: IV. Presto). Obertura 492 (Figaro in the House). 9. Mozart 13 (Rondo 13 Mix). 10. Sinfonía No. 40 en Sol menor, K. 550: I. Allegro Molto (SIN40 House Mix). 10 Songs, 43 Minutes. Lo mejor de Waldo de los Ríos.

Tracklist

A1 Mozart 13 (Serenata N.º 13 En Sol Mayor "Noches De Música")
A2 Allegro/Rondo
B1 Obertura 492 (Las Bodas De Fígaro K 492)
B2 Broma Musical (4º Tiempo "Presto")

Companies, etc.

  • Manufactured By – Hispavox, S.A.
  • Printed By – Grafiberica - Jerez

Credits

  • Adapted By [Adaptación Musical] – W. De Los Rios*
  • Written-By – W. A. Mozart*

Notes

DISCOS SORPRESA FUNDADOR 1972/73.
Fabricado en España

Barcode and Other Identifiers

  • Rights Society: S.G.A.E.
  • Depósito Legal: M. 10.829-1972
  • Other (Permiso Nº): 3637
  • Matrix / Runout (A Side): 10-252-A-2
  • Matrix / Runout (B Side): 10-252-B-3

Related at Waldo De Los Rios - Mozart 13 / Allegro/Rondo / Obertura 492 / Broma Musical FLAC albums

Waldo De Los Rios - Mozart: Eine Kleine Nachtmusik download flac

Waldo De Los Rios - Mozart: Eine Kleine Nachtmusik album download...

Released: 1971
Country: Germany
Style: Classical, Romantic, Easy Listening
Mozart - Mozart download flac

Mozart - Mozart album download...

Released: 1990
Style: Classical