usbfoot

» » Jhonny & Peps - Freedom In My House

Jhonny & Peps - Freedom In My House download flac

music album
Jhonny  & Peps  - Freedom In My House download flac

Performer: Jhonny
Title: Freedom In My House
Released: 2006
Country: Italy
Style: House
Category: Electronic
Size FLAC: 1231 mb
Size MP3: 1449 mb
Size WMA: 1859 mb
Other formats: AUD AAC VOC TTA MP2 MOD WAV


Freedom in My House (Noize Mix). Released: 30 Jul 2006. More By JHONNY & PEPS. See All. Hymn - Single.

Tracks in release Freedom in My House. Trackname, Key, BPM, Publish date. Artists, Remixers, Label. 1. Freedom in My House (Original Mix). 128 bpm, 7B, F major, 2006-07-30, House, 0 3. Jhonny & Peps. 2. Freedom in My House (Prickly Mix). 128 bpm, 3A, Bb minor, 2006-07-30, House, 0 3. 3. Freedom in My House (Noize Mix).

Jhonny & Peps скачать mp3 в хорошем качестве, либо слушайте песню Jhonny & Peps - Acqua (Thomas Schwartz & Fausto Fanizza Remix), Неизвестен - Jhonny and Peps - Air (Original Mix), Stereobrains - Luna (Jhonny and peps Remix), Jhonny & Peps - Air, а также рингтоны на звонок и все новые треки. Jhonny & Peps – Freedom In My House (Prickly Mix. :55. Starchaser Feat Lo Fi Sugar – So High (Jhonny Peps Remix).

From: JHONNY & PEPS.

Junior (The Clubbers). Jhonny & Peps Presents Squid-Tekne EP. Album. Acqua (Thomas Schwartz & Fausto Fanizza Mix).

Jhonny & Peps - Freedom In My House (5:03) 05. Alias 1 - Coming Up (5:41) 06. Freeform Five - No More Conversations (Mylo Remix) (4:56) 0. TRACK 02 AUDIO TITLE "I Want You (Electro Dub Mix)" PERFORMER "Areavip" REM COMPOSER "" INDEX 01 06:55:08 TRACK 03 AUDIO TITLE "Tooting Warrior (Till West & DJ Delicious Remix)" PERFORMER "Mike Monday" REM COMPOSER "" INDEX 01 12:06:12 TRACK 04 AUDIO TITLE "Freedom In My House" PERFORMER "Jhonny & Peps" REM COMPOSER "" INDEX 01 16:40:06 TRACK 05 AUDIO TITLE "Coming.

Tracklist

A1 Freedom In My House (Original Mix) 7:07
B1 Freedom In My House (Prickly Mix) 5:34
B2 Freedom In My House (Noize Mix) 6:49

Notes

Written by A.Genovese
Arranged & mixed by A.Genoves - G.Genovese.
Thanks to "Da Pleasure Group" & all supporters.
(P) & (C) 2006 JT Company S.r.L.
Publishing: 909 Music S.r.L

Other versions

Category Artist Title (Format) Label Category Country Year
CLUBBIN 092 Jhonny & Peps Jhonny & Peps - Freedom In My House ‎(12") Clubbin' Records CLUBBIN 092 Italy 2006
CLUBBIN 092 Jhonny & Peps Jhonny & Peps - Freedom In My House ‎(3xFile, WAV, Single) Clubbin' Records CLUBBIN 092 Italy 2006

Related at Jhonny & Peps - Freedom In My House FLAC albums

Jomoney - Housemusic! download flac

Jomoney - Housemusic! album download...

Released: 2000
Country: Italy
Style: House
Ice Cube - We Be Clubbin' download flac

Ice Cube - We Be Clubbin' album download...

Released: 1997
Country: US
Style: Gangsta
DJ Jaimy - Freedom & Soul Mates download flac

DJ Jaimy - Freedom & Soul Mates album download...

Released: 2004
Style: Progressive House, Tribal House
Andrea Bertolini - The Funky Train download flac

Andrea Bertolini - The Funky Train album download...

Released: 2003
Country: Italy
Style: House, Disco
The Maxies - Going Clubbin' download flac

The Maxies - Going Clubbin' album download...

Released: 2011
Country: US
Style: Punk
Flat-Lines - A Night In Sao Paulo download flac

Flat-Lines - A Night In Sao Paulo album download...

Released: 2002
Country: Italy
Style: House
Robert Burian - Freedom download flac

Robert Burian - Freedom album download...

Released: 2006
Style: Deep House
Dr. FeelX & Mc. Pady Featuring DJ Kim  - Fuckin' Freak download flac

Dr. FeelX & Mc. Pady Featuring DJ Kim - Fuckin' Freak album download...

Released: 2001
Country: Italy
Style: House, Tribal House