usbfoot

» » James Cotton, Debbie Davies, Ronnie Hawkins, Colin James , Cub Koda, Taj Mahal, Kenny Neal, Christine Ohlman, Lucky Peterson, Lucinda Williams, Henry Gray, Calvin Jones, Sam Lay, Colin Linden, Eddie Shaw , Hubert Sumlin - A Tribute To Howlin' Wolf

James Cotton, Debbie Davies, Ronnie Hawkins, Colin James , Cub Koda, Taj Mahal, Kenny Neal, Christine Ohlman, Lucky Peterson, Lucinda Williams, Henry Gray, Calvin Jones, Sam Lay, Colin Linden, Eddie Shaw , Hubert Sumlin - A Tribute To Howlin' Wolf download flac

music album
James Cotton, Debbie Davies, Ronnie Hawkins, Colin James , Cub Koda, Taj Mahal, Kenny Neal, Christine Ohlman, Lucky Peterson, Lucinda Williams, Henry Gray, Calvin Jones, Sam Lay, Colin Linden, Eddie Shaw , Hubert Sumlin - A Tribute To Howlin' Wolf download flac

Performer: James Cotton
Title: A Tribute To Howlin' Wolf
Released: 1998
Country: Europe
Category: Blues
Size FLAC: 1659 mb
Size MP3: 1115 mb
Size WMA: 1235 mb
Other formats: MIDI AA TTA DXD AAC AU MP2


Compilation by various artists. Saddle My Pony by Taj Mahal (featuring Calvin Jones, Henry Gray, Hubert Sumlin and Tim Taylor). Howlin' for My Darling by Christine Ohlman (featuring Calvin Jones, Eddie Shaw, Henry Gray, Hubert Sumlin and Sam Lay). The Red Rooster by Kenny Neal (featuring Calvin Jones, Henry Gray, Hubert Sumlin and Sam Lay). Just Like I Treat You by Colin Linden (featuring Calvin Jones, James Cotton, Henry Gray, Hubert Sumlin and Sam Lay).

Taj Mahal (sounding a good bit like Wolf himself) is here, as are guitar-slinger Debbie Davies and t Kenny Neal. A Tribute to Howlin' Wolf suffers from uneven performances, just like any other tribute, but there are enough strong moments to pull the weak spots and poor Howlin' Wolf impressions. Artists as eclectic as Taj Mahal, Chrstine Ohlman, Cub Koda, Ronnie Hawkins and Lucinda Williams deliver spirited performances, capturing the sound and spirit of classic Wolf recordings. Christine Ohlman & Eddie Shaw - Howlin' For My Darling (3:03) 03. Kenny Neal - The Red Rooster (5:36) 04. Colin Linden - Just Like I Treat You (4:24) 05. Eddie Shaw - Built For Comfort (4:45) 06.

ALBUM, TITLE: A Tribute To Howlin' Wolf. Release year, date: 1998. 01. Taj Mahal, Saddle My Pony 02. Christine Ohlman & Eddie Shaw, Howlin' For My Darling 03. Kenny Neal, The Red Rooster 04. Colin Linden, Just Like I Treat You 05. Eddie Shaw, Built For Comfort 06. Debbie Davies, Ooh Baby (Hold Me) 07. Cub Koda, Riding In The Moonlight 08. Ronnie Hawkins, Back Door Man 09. Sam Lay, Baby How Long 10. Hubert Sumlin, Killing Floor 11. Colin James, Howlin' Wolf Boogie 12. Henry.

Christine Ohlman & Eddie Shaw" INDEX 00 04:12:62 FILE "02 - Christine Ohlman & Eddie Shaw - Howlin' For My Darling. wav" WAVE INDEX 01 00:00:00 TRACK 03 AUDIO TITLE "The Red Rooster" PERFORMER "Kenny Neal" INDEX 00 03:01:20 FILE "03 - Kenny Neal - The Red Rooster. wav" WAVE INDEX 01 00:00:00 TRACK 04 AUDIO TITLE "Just Like I Treat. 10 - Hubert Sumlin - Killing Floor. wav" WAVE INDEX 01 00:00:00 TRACK 11 AUDIO TITLE "Howlin' Wolf Boogie" PERFORMER "Colin James" INDEX 00 03:10:07 FILE "11 - Colin James - Howlin' Wolf Boogie. wav" WAVE INDEX 01 00:00:00 TRACK 12 AUDIO TITLE "Smokestack Lightnin'" PERFORMER "Henry Grey" INDEX 00 03:42:62 FILE "12 - Henry Grey - Smokestack Lightnin'.

00:00:00) Christine Ohlman, Eddie Shaw, Hubert Sumlin - Howlin' for My Darling. 03. (00:00:00) Kenny Neal, Hubert Sumlin - The Red Rooster. 04. (00:00:00) Colin Linden, James Cotton, Hubert Sumlin - Just Like I Treat You. 05. (00:00:00) Eddie Shaw, Hubert Sumlin - Built for Comfort. 06. (00:00:00) Debbie Davies, Hubert Sumlin, Colin Linden - Ooh Baby (Hold Me). 07. (00:00:00) Cub Koda, Lucky Peterson, Hubert Sumlin - Riding in the Moonlight. 10. (00:00:00) Hubert Sumlin, Colin Linden - Killing Floor. 11. (00:00:00) Colin James, Cub Koda, Hubert Sumlin - Howlin' Wolf Boogie. 12. (00:00:00) Christine Ohlman, Lucky Peterson - Smokestack Lightnin'. 13. (00:03:57) Lucinda Williams, Colin Linden - Come to Me Baby. 07 - Riding in the Moonlight.

Tracklist

1 Saddle My Pony 4:12
2 Howlin' For My Darling 3:01
3 The Red Rooster 5:33
4 Just Like I Treat You 4:20
5 Built For Comfort 4:42
6 Ooh Baby (Hold Me) 3:16
7 Riding In The Moonlight 3:54
8 Back Door Man 4:20
9 Baby How Long 3:40
10 Killing Floor 3:10
11 Howlin' Wolf Boogie 3:42
12 Smokestack Lightnin' 4:36
13 Come To Me Baby 3:11

Companies, etc.

  • Phonographic Copyright (p) – Telarc
  • Copyright (c) – Telarc

Barcode and Other Identifiers

  • Barcode: 089408342721

Other versions

Category Artist Title (Format) Label Category Country Year
CD-83427 Henry Gray, Calvin Jones, Sam Lay, Colin Linden, Eddie Shaw , Hubert Sumlin Henry Gray, Calvin Jones, Sam Lay, Colin Linden, Eddie Shaw , Hubert Sumlin - A Tribute To Howlin' Wolf ‎(CD, Album, Enh) Telarc CD-83427 Europe 1998


Related at James Cotton, Debbie Davies, Ronnie Hawkins, Colin James , Cub Koda, Taj Mahal, Kenny Neal, Christine Ohlman, Lucky Peterson, Lucinda Williams, Henry Gray, Calvin Jones, Sam Lay, Colin Linden, Eddie Shaw , Hubert Sumlin - A Tribute To Howlin' Wolf FLAC albums

Howlin' Wolf - Shake For Me / The Red Rooster download flac

Howlin' Wolf - Shake For Me / The Red Rooster album download...

Released: 1961
Country: US
Style: Electric Blues
Howlin' Wolf - Going Down Slow download flac

Howlin' Wolf - Going Down Slow album download...

Released: 1992
Style: Chicago Blues
Howlin' Wolf - Essential Original Albums download flac

Howlin' Wolf - Essential Original Albums album download...

Released: 2017
Country: Europe
Style: Chicago Blues
Howlin' Wolf - On Top Of The World download flac

Howlin' Wolf - On Top Of The World album download...

Released: 2017
Country: Europe
Style: Chicago Blues
Howlin' Wolf - His Greatest Sides, Volume One download flac

Howlin' Wolf - His Greatest Sides, Volume One album download...

Released: 2016
Country: US
Style: Electric Blues, Chicago Blues