usbfoot

» » Booker T. & Priscilla Jones - The Crippled Crow / Wild Fox

Booker T. & Priscilla Jones - The Crippled Crow / Wild Fox download flac

music album
Booker T. & Priscilla Jones - The Crippled Crow / Wild Fox download flac

Performer: Booker T.
Title: The Crippled Crow / Wild Fox
Released: 1973
Country: US
Style: Soul
Category: Soul - Funk
Size FLAC: 1292 mb
Size MP3: 1112 mb
Size WMA: 1890 mb
Other formats: ASF WAV DMF AU TTA ADX VQF


Booker T. Jones, Priscilla Jones - Wild Fox mp3. mp3 Player. Music video: Watch now Booker T. Jones, Priscilla Jones's video clip of album "The Crippled Crow, Wild Fox".

Deutsch English Español Français Italiano 日本語. More Images.

On this page you can not listen to mp3 music free or download album or mp3 track to your PC, phone or tablet. All materials are provided for educational purposes. The Crippled Crow, Wild Fox. Evergreen.

Booker T and Priscilla. Careful listeners will notice the piano motif from "Layla" popping up on one of the tunes. 14:21:00 FILE "02 Side Tw. p3" WAVE TRACK 05 AUDIO TITLE "Mendocino" INDEX 01 00:00:00 TRACK 06 AUDIO TITLE "The Crippled Crow" INDEX 01 03:40:00 TRACK 07 AUDIO TITLE "Cherokee River" INDEX 01 07:42:30 TRACK 08 AUDIO TITLE "Time" INDEX 01 11:18:00 TRACK 09 AUDIO TITLE "Wounded Knee'" INDEX 01 15:58

Artist: Kris Kristofferson, Booker T. Jones, Tom Scott, James Pankow, Kenny Ascher, Bobby Shew. Album: A Star Is Born, The Way We Were, A Star Is Born. Download Bobby Shew, Booker T. Jones, James Pankow, Kenny Ascher, Kris Kristofferson, Tom Scott - Crippled Crow. A Star Is Born: Best 1 songs.

Booker T. & Priscilla Jones - Wild Fox. on Jul 10, 2015 by Sunlight Man. Play. TIME, BOOKER . amp;PRISCILLA JONES (piano coda of "Layla"). on Oct 25, 2008 by chiidang. Booker . amp;Priscilla Born under a Bad Sign. on Dec 23, 2012 by painrainn. Booker T. and Priscilla - The Indian Song. on Mar 04, 2018 by inthepastthebreezes. Priscilla Jones Breaking Down The Walls. on Oct 24, 2012 by Daniel Pedrosa.

B The Crippled Crow 4:02. release on tan/brown A&M label. & Priscilla Jones -The Crippled Crow, Wild Fox (7"). & Priscilla Jones - A&M. Wild Fox (7", Promo). Category Country Year. & Priscilla Jones : Chronicles is a jazz related rnb music album recording by BOOKER T. JONES released in 1973 on CD, LP/Vinyl and/or cassette. A1 Fly 4:22 A2 When Two People Are In Love 3:58 A3 Rings Around The World 5:54 A4 Wild Fox 5:52 B1 Mendocino 3:38 B2 The Crippled Crow 4:02 B3 Cherokee River 4:04 B4 Time 4:08 B5 Wounded Knee 5:37. A&M Records ‎– SP 4413. Thanks to snobb for the addition. No release results found : showing artist results instead.

Tracklist

The Crippled Crow 4:02
Wild Fox

Versions

Category Artist Title (Format) Label Category Country Year
1487-S Booker T.* & Priscilla Jones Booker T.* & Priscilla Jones - The Crippled Crow / Wild Fox ‎(7") A&M Records 1487-S US 1973
1487-S Booker T. Jones & Priscilla Jones Booker T. Jones & Priscilla Jones - Wild Fox / The Crippled Crow ‎(7", Single) A&M Records 1487-S US 1973
1487 Booker T.* & Priscilla Jones Booker T.* & Priscilla Jones - Wild Fox ‎(7", Promo) A&M Records 1487 US 1973

Related at Booker T. & Priscilla Jones - The Crippled Crow / Wild Fox FLAC albums

Priscilla - Priscilla Sings Herself download flac

Priscilla - Priscilla Sings Herself album download...

Released: 1967
Country: US
Style: Pop Rock, Ballad
Frank Booker - Frank Booker Edits download flac

Frank Booker - Frank Booker Edits album download...

Released: 2013
Style: Disco, Funk, House
Booker T And The M.G.'s - Up Tight (Music From The Score Of The Motion Picture) download flac

Booker T And The M.G.'s - Up Tight (Music From The Score Of The Motion Picture) album download...

Released: 1969
Country: US
Style: Soundtrack, Rhythm & Blues, Funk